Смотреть видео онлайн

starr


- только HD качество  

6:32 - Ringo Starr - Live in Michigan - 22.mp4
Загружено вчера
8:5 - Ringo Starr - Live in Michigan - 5.mp4
Загружено вчера
4:44 - Busta Rhymes - Make It Clap ft. Spliff Starr
Загружено вчера
Busta Rhymes' official music video for 'Make It Clap' ft. Spliff Star. Click to listen to Busta Rhymes on Spotify:
3:46 - Ringo Starr & His All Starr Band - With A Little Help From My Friends (Live At The Greek)
Загружено 15 декабря 2018
Music video by Ringo Starr & His All Starr Band performing With A Little Help From My Friends. (C) 2010 Roccabella, Inc., Under Exclusive License t...
4:9 - I Wanna Be Your Man - Ringo Starr @ Fraze Pavilion, Kettering, Sep 11, 2018 (With The Beatles Song)
Загружено 14 декабря 2018
Ringo Starr & His All Starr Band performing 'I Wanna Be Your Man', a song from 'With The Beatles' album (written by Paul McCartney and John Lennon)...
9:3 - Paul McCartney and Ringo Starr - Little Help From My Friends and Hey Jude (Tribute to the Beatles night) 2014
Загружено 13 декабря 2018
1:30:46 - Son of Dracula (1974) -- Harry Nilsson, Ringo Starr (Full Movie)
Загружено 12 декабря 2018
Son of Dracula is a British musical comedy film, starring Harry Nilsson and Ringo Starr, produced by Starr and released in 1974 by Apple Films.-Wi...
2:10 - Andy Starr - Round and Round
Загружено 11 декабря 2018
50's raw rockabilly
4:49 - Natalia Starr in Beautiful Day - порно секс full hd стриптиз striptease solo любительское porn sex xxx osporn
Загружено 11 декабря 2018
Здесь можно перепехнуться без длительных знакомств /page-174288434_54148438
2:59 - Samurai Champloo AMV: Gang Starr - Battle
Загружено 11 декабря 2018
Please rate and comment. High-Quality Download(54 MB): > I wanna know if it's good. I have more...
1:16 - Rachel Starr Smoking Face-sitting
Загружено 10 декабря 2018
5:36 - Reddy, Sway D, Paloalto, YunB, G2, Huckleberry P & Camo Starr - Break Bread [Official Video]
Загружено 10 декабря 2018
Check out the official video of Reddy, Sway D, Paloalto, YunB, G2, Huckleberry P and Camo Starr's "Break Bread".Directed by Allen's Eyes and Palo...
13:25 - GANG STARR : История Легенды | DJ PREMIER | GURU
Загружено 10 декабря 2018
GANG STARR : История ЛегендыСегодняшний выпуск мы посвятили одной из легендарных групп в хип-хопе, а именно дуэту GANG STARR cсостоящего из DJ PRE...
4:5 - Gang Starr & Lil' Dap & Jeru The Damaja - I'm The Man
Загружено 10 декабря 2018
I'm The Man feat. Lil Dap (Group Home) and Jeru! Album: Gang Starr - Fullclip A Decade of Gangstarr
3:41 - Tiesto feat Rachael Starr - I Love You (To Forever Moonbeam Remix) SCA
Загружено 9 декабря 2018
4:7 - Ringo Starr - Give More Love
Загружено 9 декабря 2018
6:14 - Riva Starr & Green Velvet - Keep Pushin' (Harder) (Original Mix)
Загружено 9 декабря 2018
Buy : https://>Label : Snatch! RecordsCopyright holders / contact me and i remove th...
3:54 - Gang Starr - You Know My Steez (LIVE) 1998
Загружено 9 декабря 2018
Guru puts on a great performance.
3:44 - Gang Starr - Full Clip
Загружено 8 декабря 2018
Full Clip: A Decade of Gang Starr 1999 R.I.P. Big L
1:38:42 - Strapped | На Мели (1993) - Юрий Живов - Bokeem Woodbine, Michael Biehn, Fredro Starr, Sticky Fingaz, Busta Rhymes, Das EFX
Загружено 8 декабря 2018
• Перевод : Авторский (одноголосый закадровый) Юрий Живов• Видео : Xvid / 768x576 (4:3) / 25 fps• Аудио : Dolby AC3 / 48000 Hz / stereo / 192 kbps• Оцифровка с VHS : alenavova (2018)• Изменение картинки на 109 % : Felix Montana (2018)• Размер потока : 3.59 Гбайт (96 %)• ONYX in Russia: https:///onyxrussia• Сотрудничество и концерты ONYX в России: onyxhq@
1:41:47 - Strapped | Банкрот (1993) - Павел Санаев - Bokeem Woodbine, Michael Biehn, Fredro Starr, Sticky Fingaz, Busta Rhymes, Das EFX
Загружено 8 декабря 2018
• Перевод : Авторский (одноголосый закадровый) Павел Санаев• Видео : MPEG-4 Visual (DivX 5) / 864x576 (3:2) / 29.97 fps• Аудио : MP3 / 48000 Hz / stereo / 128 kbps• Оцифровка с VHS : alenavova (2018)• Синхронизация аудио : ale_x2008 (при помощи Sony Vegas и VirtualDubMod) (2018)• DVDRip : Felix Montana (2018)• Размер потока : 4.26 Гбайт (98 %)• ONYX in Russia: https:///onyxrussia• Сотрудничество и концерты ONYX в России: onyxhq@
4:17 - Playas need Love - Kamal (f. Desiree Starr)
Загружено 8 декабря 2018
Interested in being featured in a video like this one contact kamal@
3:47 - Busta Rhymes - Make It Clap (Remix Video) ft. Sean Paul, Spliff Starr
Загружено 7 декабря 2018
Busta Rhymes' official music video for 'Make It Clap' ft. Sean Paul and Spliff Star. Click to listen to Busta Rhymes on Spotify: >
3:11 - Ringo Starr - Only You (And You Alone) (1974)
Загружено 6 декабря 2018
5:35 - Paul_McCartney_and_Ringo_Starr_2014-01-26_Grammy_Awards_1080i
Загружено 6 декабря 2018
Paul McCartney & Ringo Starr - Queenie Eye [Introduction by Julia Roberts]
6:56 - *♫* STEVE LUKATHER - GREGG ROLIE - RINGO STARR *♫* - BLACK MAGIC WOMAN
Загружено 5 декабря 2018
10:57 - Paul McCartney & Ringo Starr - Medley (Tribute to The Beatles, 2014), 720p, HQ Audio
Загружено 5 декабря 2018
1. Sgt. Pepper's Lonely Hearts Club Band2. With A Little Help From My Friends3. Hey Jude.
4:46 - Gang Starr - Jazz Thing (Official Video)
Загружено 5 декабря 2018
4:49 - WHISKEY & PANTYHOSE (OFFICIAL MUSIC VIDEO) ft. Klaas, DJ Rhiannon, Starr Jamezz & Mixed Motionz
Загружено 5 декабря 2018
Video to single, "Whiskey & Pantyhose" ft. Klaas, Starr Jamezz, DJ Rhiannon & Mixed Motionz Follow DJ KIDD STAR & Purchase Single:Spotify: h...
21:18 - UK Old School Wrestling Jimmy Starr vs Marty Scurll
Загружено 5 декабря 2018
A old school style wrestling match form the UK Dropkixx promotion featuring two teenage wrestlers.
3:21 - Vietnam War • Edwin Starr - War.mp4
Загружено 5 декабря 2018
4:29 - Ringo Starr _ His All-Starr Band - Take The Long W(360P).mp4
Загружено 5 декабря 2018
3:27 - Ringo Starr - It Dont Come Easy - 45 RPM
Загружено 4 декабря 2018
3:14 - Carl Perkins w_ Eric Clapton_ Ringo Starr - Matchb(360P).mp4
Загружено 4 декабря 2018
3:12 - Carl Perkins w_ Ringo Starr - Honey Don_t - 9_9_19(360P).mp4
Загружено 4 декабря 2018
4:21 - Ringo Starr _ Friends With A Little Help From My(360P).mp4
Загружено 4 декабря 2018
1:0 - AcQs vs KdJd $ 10 091 NLZWERVERNL vs MunEZ_StaRR
Загружено 4 декабря 2018
4:49 - Atlantic Starr Always 1987
Загружено 3 декабря 2018
3:22 - Vietnam War • Edwin Starr - War
Загружено 2 декабря 2018
• Unpolitical Video• Видео не является пропагандой. Видео несет сугубо исторический и документальный характер.• Music: Edwin Starr - War• Soci...
4:46 - Gang Starr - Jazz Thing (From "Mo'Better Blues")
Загружено 1 декабря 2018
Music video by Gang Starr performing Jazz Thing (From "Mo'Better Blues"). (C) 1990 Sony BMG Music Entertainment>#GangStarr ...

Интересное в онлайне