DAS EFX


- только HD качество  

3:26 - Das Efx - Baknaffek [HD]
Загружено вчера
From Das Efx's heavily over looked 1993 sophomore underground release "Straight Up Sewaside." In 1992 Das Efx rose to popularity with the single ...
4:9 - Das EFX - Real Hip Hop | *Best Quality* (1995)
Загружено 18 января 2019
As You Can See Real Hip Hop Is Not On The Radio.
3:39 - Das EFX — They Want EFX
Загружено 18 января 2019
3:40 - Das EFX - They Want EFX
Загружено 17 января 2019
From 1992 Album: "Dead Serious"..... Das EFX's Myspace: > Get Das EFX's Music:
4:9 - Das EFX - Rap Scholar
Загружено 13 января 2019
4:15 - PMD ft. Das EFX - Rugged-N-Raw (Uncut)
Загружено 13 января 2019
4:26 - Das EFX feat. Mobb Deep- Microphone Master (Mista Izm Remix)
Загружено 9 января 2019
Re-upload from 2013 "Izmpretations EP"H.N.I.C forever!https:///mista-izm-beatzhttps://>
2:23 - Das EFX ft. Redman - East Coast (Live)
Загружено 7 января 2019
3:33 - Das EFX - Straight Out The Sewer
Загружено 25 декабря 2018
4:10 - Das EFX - Real Hip-Hop
Загружено 25 декабря 2018
4:16 - PMD ft. Das EFX - Rugged-N-Raw
Загружено 25 декабря 2018
From 1996 Album: "Business Is Business"..... PMD's Myspace: > Get PMD's Music: >
4:11 - Das EFX - Real Hip Hop
Загружено 25 декабря 2018
From 1995 Album: "Hold It Down"...[Artist info below]..... Get Das EFX's Music: >
3:39 - Das EFX - They Want EFX
Загружено 25 декабря 2018
This version is from the 1992 single : "They Want EFX"Das EFX is an American hip hop duo. It consists of emcees Dray (also known as Krazy Drayz, ...
3:45 - 13. Ice Cube - Check Yo Self feat. DAS EFX
Загружено 23 декабря 2018
The Predator is the third studio album by Ice Cube. Released within months of the 1992 Los Angeles riots, many songs comment on the racial tensions...
3:43 - DAS EFX Live at Saturday Night Fever at The Nines 2018
Загружено 22 декабря 2018
[club170472947|DAS EFX] Das Efx Live at Saturday Night Fever at The Nines.2018Будь с нами, будь в курсе! Vibe or Hype©™ #cypher #live #freestyle #vibe #hype #vibeorhype #rap #hiphop #dasefx
8:54 - SOULKAST quotLes coulisses de l39albumquot episode 2 avec ONYX et DAS EFX
Загружено 19 декабря 2018
3:25 - Das Efx - Baknaffek
Загружено 14 декабря 2018
3:34 - Das EFX - Straight Out The Sewer
Загружено 9 декабря 2018
From 1992 Album: "Dead Serious"..... Das EFX's Myspace: > Get Das EFX's Music:
1:38:42 - Strapped | На Мели (1993) - Юрий Живов - Bokeem Woodbine, Michael Biehn, Fredro Starr, Sticky Fingaz, Busta Rhymes, Das EFX
Загружено 8 декабря 2018
• Перевод : Авторский (одноголосый закадровый) Юрий Живов• Видео : Xvid / 768x576 (4:3) / 25 fps• Аудио : Dolby AC3 / 48000 Hz / stereo / 192 kbps• Оцифровка с VHS : alenavova (2018)• Изменение картинки на 109 % : Felix Montana (2018)• Размер потока : 3.59 Гбайт (96 %)• ONYX in Russia: https:///onyxrussia• Сотрудничество и концерты ONYX в России: onyxhq@
1:41:47 - Strapped | Банкрот (1993) - Павел Санаев - Bokeem Woodbine, Michael Biehn, Fredro Starr, Sticky Fingaz, Busta Rhymes, Das EFX
Загружено 8 декабря 2018
• Перевод : Авторский (одноголосый закадровый) Павел Санаев• Видео : MPEG-4 Visual (DivX 5) / 864x576 (3:2) / 29.97 fps• Аудио : MP3 / 48000 Hz / stereo / 128 kbps• Оцифровка с VHS : alenavova (2018)• Синхронизация аудио : ale_x2008 (при помощи Sony Vegas и VirtualDubMod) (2018)• DVDRip : Felix Montana (2018)• Размер потока : 4.26 Гбайт (98 %)• ONYX in Russia: https:///onyxrussia• Сотрудничество и концерты ONYX в России: onyxhq@
4:1 - Chubb Rock ft. PMD & Das EFX - Beef [ER]
Загружено 2 декабря 2018
Подписывайся и смотри! https:///em_rap
3:44 - Das EFX - Preforming Live in Deep Ellum Dallas 2018
Загружено 26 ноября 2018
3:40 - Das EFX They Want EFX Remix
Загружено 25 ноября 2018
3:32 - Das Efx Straight Out The Sewer
Загружено 25 ноября 2018
3:21 - Das EFX - Baknaffek [ER]
Загружено 22 ноября 2018
Подписывайся и смотри! https:///em_rap
3:44 - Das Efx Preforming Live in Deep Ellum|Dallas2018
Загружено 22 ноября 2018
[club170472947|DAS EFX] Прямиком из Далласа, живое выступление легендарных Das Efx!2018Будь с нами, будь в курсе! Vibe or Hype©™ #cypher #live #freestyle #vibe #hype #vibeorhype #rap #hiphop #dasefx
3:39 - Das EFX - They Want EFX
Загружено 16 ноября 2018
4:23 - Das EFX - Mic Checka
Загружено 16 ноября 2018
4:11 - Das EFX - Microphone Master (Feat. Mobb Deep)
Загружено 16 ноября 2018
4:11 - Das EFX Microphone Master (Feat. Mobb Deep) [FTP]
Загружено 9 ноября 2018
4:31 - Krazy Drayz of Das EFX - Mic Check
Загружено 9 ноября 2018
3:17 - Chubb Rock Feat. Das EFX & PMD - Beef
Загружено 8 ноября 2018
3:40 - Das EFX - They Want EFX ‌‌ - Bohemia After Dark
Загружено 9 октября 2018
NEW Channel! Come Subscribe to Bohemia After Dark's NEW Channel! We will be unlocking more of the music vault! https://
3:16 - Das EFX - Freakit
Загружено 5 октября 2018
4:18 - Alina Rin VS. Das Efx – Real Hip-Hop (Pete Rock Remix)
Загружено 30 сентября 2018
3:16 - Das EFX - Freakit
Загружено 30 сентября 2018
4:9 - Das EFX — Rap Scholar
Загружено 24 сентября 2018
4:23 - Das EFX — Mic Checka
Загружено 24 сентября 2018
3:15 - Skoob Das EFX - They Don't Like Me
Загружено 19 сентября 2018
3:44 - Das EFX - They Want EFX
Загружено 19 сентября 2018

Интересное в онлайне